#TITLE:The Crazy Frog Song;
#SUBTITLE:;
#ARTIST:Unknown artist;
#TITLETRANSLIT:;
#SUBTITLETRANSLIT:;
#ARTISTTRANSLIT:;
#CREDIT:;
#BANNER:Copy of crazy frog .png;
#BACKGROUND:crazy frog bg.png;
#LYRICSPATH:;
#CDTITLE:;
#MUSIC:The Crazy Frog Song.mp3;
#OFFSET:0.000;
#SAMPLESTART:100.000;
#SAMPLELENGTH:12.000;
#SELECTABLE:YES;
#BPMS:0.000=60.000;
#STOPS:;
#BGCHANGES:;
// cache tags:
#FIRSTBEAT:1.000;
#LASTBEAT:189.000;
#SONGFILENAME:Songs/New Folder/The Crazy Frog Song.file/The Crazy Frog Song.sm;
#HASMUSIC:1;
#HASBANNER:1;
#MUSICLENGTH:182.837;
// end cache tags

//---------------dance-single - ----------------
#NOTES:
     dance-single:
     :
     Easy:
     1:
     0.000,0.000,0.000,0.000,0.000,0.000,0.000,0.000,0.000,0.000:
0000
0000
0000
0000
;

//---------------dance-single - Copied from----------------
#NOTES:
     dance-single:
     Copied from:
     Medium:
     1:
     0.000,0.000,0.000,0.000,0.000,0.000,0.000,0.000,0.000,0.000:
0000
0000
0000
0000
;

//---------------dance-single - Copied from----------------
#NOTES:
     dance-single:
     Copied from:
     Edit:
     1:
     0.213,0.336,0.443,0.077,0.000,162.000,81.000,14.000,0.000,16.000:
0000
0100
0100
0100
,
0100
0100
0100
0100
,
0100
1001
1001
1111
,
1101
1001
1001
1001
,
0000
0110
1001
1002
,
1111
1001
0110
1001
,
0111
1111
1002
0113
,
1001
0110
2002
1112
,
1123
1030
0101
1001
,
1110
1001
1001
1001
,
1010
1011
1110
1001
,
1001
1001
1101
0000
,
1000
0110
0000
0001
,
0000
1000
0100
0010
,
0001
0000
0011
1000
,
0001
1001
0010
1100
,
0001
1010
0100
0001
,
1010
0001
1100
0100
,
0000
0001
0000
1000
,
0001
1000
0001
0000
,
0001
0000
1000
0001
,
1000
0001
0000
1000
,
0001
0000
1000
0001
,
0000
1000
0001
1000
,
0101
0110
0110
0000
,
0110
1101
1000
0111
,
1001
1001
0100
0110
,
0100
0100
1000
1001
,
1001
1001
0110
0100
,
0010
0100
1010
0001
,
0100
0010
0000
0110
,
1100
0001
1000
0001
,
1000
0001
1100
0001
,
1000
0010
1100
0200
,
0002
1303
1001
2002
,
3003
0110
0100
1000
,
0101
1100
0001
1000
,
0100
0110
1000
0001
,
1000
1001
0001
0000
,
1000
0001
1000
0001
,
1000
0001
1000
0110
,
0010
0110
0110
0110
,
0110
1101
1001
1001
,
1001
1001
1001
2002
,
0000
0000
0000
3003
,
0000
0200
0000
0110
,
0000
0000
0000
0000
,
2002
3003
0000
0000
;
